<?xml version="1.0" standalone="no"?>
<!DOCTYPE svg PUBLIC "-//W3C//DTD SVG 1.1//EN" "http://www.w3.org/Graphics/SVG/1.1/DTD/svg11.dtd">
<svg xmlns="http://www.w3.org/2000/svg">
<defs >
<font id="Roboto" horiz-adv-x="1135" ><font-face
    font-family="Roboto Light"
    units-per-em="2048"
    panose-1="2 0 0 0 0 0 0 0 0 0"
    ascent="1900"
    descent="-500"
    alphabetic="0" />
<glyph unicode=" " horiz-adv-x="498" />
<glyph unicode="!" horiz-adv-x="462" d="M284 405H173L167 1456H291L284 405ZM153 70Q153 104 175 127T235 151T295 128T318 70Q318 37 296 15T235 -8T175 14T153 70Z" />
<glyph unicode="&quot;" horiz-adv-x="588" d="M243 1396L223 1083H143L146 1536H243V1396ZM479 1396L459 1083H378L382 1536H479V1396Z" />
<glyph unicode="#" horiz-adv-x="1191" d="M753 410H439L362 0H263L340 410H85V503H357L440 944H161V1040H458L537 1456H636L557 1040H872L951 1456H1051L972 1040H1201V944H954L871 503H1126V410H853L776 0H676L753 410ZM456 503H771L854 944H539L456 503Z" />
<glyph unicode="$" d="M901 359Q901 470 829 540T575 674Q349 745 258 842T167 1095Q167 1258 267 1359T539 1475V1677H641V1475Q817 1459 913 1343T1010 1028H891Q891 1185 810 1277T587 1370Q445 1370 366 1296T286 1097Q286 977 359 910T607 783T862 669T981
540T1021 361Q1021 197 919 97T637 -18V-208H536V-19Q335 -6 225 107T115 418H235Q235 262 326 174T580 85Q722 85 811 161T901 359Z" />
<glyph unicode="%" horiz-adv-x="1513" d="M109 1176Q109 1306 189 1391T394 1477T598 1392T679 1170V1099Q679 971 600 886T396 800Q273 800 191 884T109 1106V1176ZM206 1099Q206 1006 257 946T396 886Q481 886 531 946T582 1103V1176Q582 1269 530 1329T394
1390Q311 1390 259 1330T206 1170V1099ZM842 357Q842 487 922 572T1126 657T1330 573T1412 350V279Q1412 149 1332 64T1128 -21T924 63T842 284V357ZM938 279Q938 185 989 125T1128 65Q1214 65 1264 125T1315 284V357Q1315 453 1264 511T1126 570Q1042 570 990
511T938 353V279ZM434 121L359 169L1070 1307L1145 1259L434 121Z" />
<glyph unicode="&amp;" horiz-adv-x="1260" d="M404 794Q317 899 278 981T238 1145Q238 1298 329 1387T573 1476Q712 1476 798 1396T884 1191Q884 1047 718 908L558 784L958 318Q1049 465 1049 651H1160Q1160 403 1032 232L1231 0H1087L961 146Q882 68 779 24T560
-20Q352 -20 230 86T108 371Q108 477 170 571T390 784L404 794ZM560 81Q651 81 736 119T890 229L483 701L469 716L423 681Q227 521 227 371Q227 240 317 161T560 81ZM358 1149Q358 1027 493 861L624 961Q688 1007 729 1062T770 1191Q770 1269 716 1321T572 1374Q474
1374 416 1311T358 1149Z" />
<glyph unicode="&apos;" horiz-adv-x="348" d="M226 1395L209 1090H119Q124 1386 124 1536H226V1395Z" />
<glyph unicode="(" horiz-adv-x="653" d="M140 588Q140 806 196 1011T360 1387T592 1632L621 1551Q555 1504 490 1414T374 1200T292 922T260 571Q260 362 307 169T438 -171T621 -393L592 -470Q465 -394 357 -225T195 148T140 588Z" />
<glyph unicode=")" horiz-adv-x="667" d="M514 573Q514 353 460 150T298 -223T62 -470L33 -393Q131 -323 214 -176T346 166T394 591Q394 798 346 990T214 1334T33 1555L62 1632Q188 1555 295 1386T458 1011T514 573Z" />
<glyph unicode="*" horiz-adv-x="869" d="M361 1000L29 1108L61 1209L393 1086L389 1456H493L485 1083L809 1210L842 1109L509 994L732 700L647 637L433 942L229 639L144 700L361 1000Z" />
<glyph unicode="+" horiz-adv-x="1156" d="M630 740H1073V628H630V146H509V628H75V740H509V1206H630V740Z" />
<glyph unicode="," horiz-adv-x="392" d="M131 -272L60 -220Q151 -98 154 33V188H271V63Q271 -145 131 -272Z" />
<glyph unicode="-" horiz-adv-x="586" d="M528 592H49V693H528V592Z" />
<glyph unicode="." horiz-adv-x="489" d="M145 72Q145 107 167 131T230 156T293 132T316 72T293 15T230 -8T168 14T145 72Z" />
<glyph unicode="/" horiz-adv-x="813" d="M139 -125H30L638 1456H746L139 -125Z" />
<glyph unicode="0" d="M1015 607Q1015 299 902 140T569 -20Q353 -20 238 136T120 592V853Q120 1160 234 1318T567 1476Q783 1476 897 1324T1015 874V607ZM895 868Q895 1118 814 1246T567 1374Q405 1374 323 1249T239 880V594Q239 345 323 213T569 81Q729 81 811
210T895 588V868Z" />
<glyph unicode="1" d="M694 0H574V1312L178 1165V1277L674 1461H694V0Z" />
<glyph unicode="2" d="M1049 0H137V92L636 658Q760 801 808 894T856 1075Q856 1213 775 1293T552 1374Q405 1374 315 1280T224 1036H105Q105 1159 160 1260T318 1418T552 1476Q752 1476 864 1371T977 1085Q977 983 914 862T690 560L284 101H1049V0Z" />
<glyph unicode="3" d="M403 793H527Q630 793 707 829T824 929T865 1076Q865 1216 786 1295T559 1374Q419 1374 330 1292T240 1074H120Q120 1187 177 1280T335 1425T559 1476Q757 1476 871 1368T985 1072Q985 967 919 879T736 746Q872 708 942 616T1012 395Q1012
208 890 94T564 -20Q434 -20 326 32T158 177T98 395H218Q218 256 315 169T564 81Q719 81 805 160T892 391Q892 537 799 614T523 691H403V793Z" />
<glyph unicode="4" d="M872 469H1099V368H872V0H752V368H67V436L741 1456H872V469ZM214 469H752V1301L699 1209L214 469Z" />
<glyph unicode="5" d="M218 746L289 1456H1017V1345H392L341 853Q458 933 615 933Q812 933 929 805T1046 464Q1046 234 932 107T611 -20Q421 -20 303 86T168 383H283Q300 234 384 158T611 81Q767 81 846 180T926 462Q926 622 837 723T594 824Q509 824 446 803T313
719L218 746Z" />
<glyph unicode="6" d="M843 1467V1362H829Q568 1362 418 1209T252 782Q312 865 405 910T613 956Q805 956 918 824T1032 477Q1032 335 979 221T827 44T601 -20Q392 -20 261 131T130 523V643Q130 1034 308 1248T813 1467H843ZM594 853Q480 853 382 786T250 614V512Q250
322 347 202T601 82Q741 82 827 193T914 473Q914 645 828 749T594 853Z" />
<glyph unicode="7" d="M1034 1387L412 0H287L905 1354H77V1456H1034V1387Z" />
<glyph unicode="8" d="M995 1081Q995 968 929 879T755 747Q881 704 957 608T1033 386Q1033 199 906 90T570 -20Q359 -20 233 89T106 386Q106 510 179 607T379 747Q271 789 207 878T143 1081Q143 1262 259 1369T568 1476T877 1368T995 1081ZM913 385Q913 521 816
608T568 696T321 610T225 385T318 164T570 81Q725 81 819 163T913 385ZM875 1082Q875 1207 789 1290T568 1374Q432 1374 348 1294T263 1082Q263 954 347 876T569 798Q704 798 789 876T875 1082Z" />
<glyph unicode="9" d="M884 674Q820 580 725 529T519 477Q395 477 300 541T153 718T101 965Q101 1109 156 1227T311 1410T541 1476Q760 1476 882 1323T1004 887V779Q1004 385 836 187T323 -11H301L302 93H344Q605 97 741 241T884 674ZM534 580Q654 580 749 651T885
837V906Q885 1128 793 1250T543 1373Q401 1373 310 1259T219 970Q219 803 306 692T534 580Z" />
<glyph unicode=":" horiz-adv-x="430" d="M383 72Q383 107 405 131T468 156T531 132T554 72T531 15T468 -8T406 14T383 72ZM129 995Q129 1030 151 1054T214 1079T277 1055T300 995T277 938T214 915T152 937T129 995Z" />
<glyph unicode=";" horiz-adv-x="399" d="M118 995Q118 1030 140 1054T203 1079T266 1055T289 995T266 938T203 915T141 937T118 995ZM131 -272L60 -220Q151 -98 154 33V188H271V63Q271 -145 131 -272Z" />
<glyph unicode="&lt;" horiz-adv-x="1047" d="M208 655L904 355V229L77 608V705L904 1083V957L208 655Z" />
<glyph unicode="=" horiz-adv-x="1133" d="M983 829H149V935H983V829ZM983 418H149V524H983V418Z" />
<glyph unicode="&gt;" horiz-adv-x="1061" d="M835 659L124 962V1085L969 707V610L124 231V355L835 659Z" />
<glyph unicode="?" horiz-adv-x="930" d="M376 404Q378 522 408 594T537 763T664 901T708 990T724 1101Q724 1226 658 1297T472 1369Q352 1369 279 1301T203 1115H84Q86 1279 195 1377T472 1476Q644 1476 743 1376T843 1103Q843 995 794 901T608 680Q495 585 495
404H376ZM360 70Q360 104 381 127T442 151Q480 151 502 128T525 70Q525 37 503 15T442 -8Q403 -8 382 14T360 70Z" />
<glyph unicode="@" horiz-adv-x="1870" d="M1754 513Q1749 366 1700 241T1565 48T1364 -20Q1267 -20 1206 31T1125 174Q1017 -20 827 -20Q687 -20 618 101T567 427Q582 590 641 717T796 916T1001 988Q1078 988 1136 967T1271 880L1220 310Q1210 194 1249 130T1376
66Q1499 66 1575 186T1661 513Q1680 918 1507 1122T983 1327Q772 1327 603 1222T335 923T225 478T291 35T528 -260T906 -363Q998 -363 1087 -341T1236 -284L1267 -364Q1210 -402 1108 -427T902 -453Q652 -453 472 -341T203 -17T125 478Q137 756 247 970T550 1302T987
1420Q1242 1420 1419 1314T1681 1002T1754 513ZM673 286Q684 186 729 132T848 77Q1033 77 1121 332L1166 848Q1099 897 1008 897Q897 897 816 809T696 565T673 286Z" />
<glyph unicode="A" horiz-adv-x="1279" d="M970 408H309L159 0H30L581 1456H698L1249 0H1121L970 408ZM347 513H931L639 1306L347 513Z" />
<glyph unicode="B" horiz-adv-x="1255" d="M184 0V1456H614Q848 1456 969 1360T1090 1075Q1090 962 1029 879T860 759Q987 731 1064 634T1142 410Q1142 217 1018 109T671 0H184ZM307 700V104H676Q834 104 926 184T1019 408Q1019 543 931 621T686 700H307ZM307
803H643Q797 806 881 875T966 1078Q966 1218 879 1284T614 1351H307V803Z" />
<glyph unicode="C" horiz-adv-x="1330" d="M1215 454Q1190 224 1051 102T679 -20Q517 -20 393 61T200 290T131 630V819Q131 1013 199 1163T394 1394T688 1476Q922 1476 1057 1350T1215 1000H1091Q1045 1371 688 1371Q490 1371 373 1223T255 814V636Q255 384 369
234T679 84Q872 84 970 176T1091 454H1215Z" />
<glyph unicode="D" horiz-adv-x="1341" d="M184 0V1456H591Q770 1456 912 1375T1133 1141T1213 795V661Q1213 466 1134 315T912 82T582 0H184ZM307 1351V104H583Q813 104 952 256T1091 669V797Q1091 1048 954 1199T593 1351H307Z" />
<glyph unicode="E" horiz-adv-x="1165" d="M988 698H307V104H1090V0H184V1456H1085V1351H307V802H988V698Z" />
<glyph unicode="F" horiz-adv-x="1152" d="M986 680H307V0H184V1456H1086V1351H307V785H986V680Z" />
<glyph unicode="G" horiz-adv-x="1400" d="M1235 173Q1171 82 1035 31T729 -20Q558 -20 425 62T219 294T145 638V822Q145 1125 298 1300T709 1476Q934 1476 1071 1362T1234 1046H1111Q1084 1206 981 1288T710 1371Q506 1371 387 1226T268 817V645Q268 479 324
352T486 154T729 84Q888 84 1002 134Q1076 167 1112 211V587H721V691H1235V173Z" />
<glyph unicode="H" horiz-adv-x="1449" d="M1263 0H1139V698H307V0H184V1456H307V802H1139V1456H1263V0Z" />
<glyph unicode="I" horiz-adv-x="545" d="M334 0H211V1456H334V0Z" />
<glyph unicode="J" horiz-adv-x="1127" d="M827 1456H951V433Q951 226 832 103T511 -20Q299 -20 185 91T71 401H194Q194 243 277 164T511 84Q650 84 737 176T827 426V1456Z" />
<glyph unicode="K" horiz-adv-x="1292" d="M512 723L307 521V0H184V1456H307V671L1053 1456H1208L598 808L1255 0H1105L512 723Z" />
<glyph unicode="L" horiz-adv-x="1079" d="M308 104H1027V0H184V1456H308V104Z" />
<glyph unicode="M" horiz-adv-x="1772" d="M347 1456L884 171L1423 1456H1587V0H1464V634L1474 1284L932 0H837L297 1279L307 638V0H184V1456H347Z" />
<glyph unicode="N" horiz-adv-x="1454" d="M1268 0H1145L308 1246V0H184V1456H308L1146 209V1456H1268V0Z" />
<glyph unicode="O" horiz-adv-x="1386" d="M1260 649Q1260 448 1191 296T992 62T694 -20Q439 -20 282 162T125 655V805Q125 1004 195 1157T395 1393T692 1476T988 1395T1187 1166T1260 823V649ZM1137 807Q1137 1070 1018 1219T692 1368Q489 1368 369 1219T248
801V649Q248 390 368 239T694 87Q903 87 1020 236T1137 653V807Z" />
<glyph unicode="P" horiz-adv-x="1261" d="M307 593V0H184V1456H680Q907 1456 1038 1340T1170 1021Q1170 816 1044 705T677 593H307ZM307 697H680Q859 697 953 782T1047 1019Q1047 1170 954 1259T688 1351H307V697Z" />
<glyph unicode="Q" horiz-adv-x="1386" d="M1256 649Q1256 441 1183 287T973 53L1238 -178L1153 -254L856 3Q774 -20 689 -20Q523 -20 394 62T193 294T121 642V805Q121 1004 191 1157T391 1393T687 1476Q857 1476 986 1394T1185 1159T1256 806V649ZM1133 807Q1133
1070 1014 1219T687 1368Q485 1368 365 1219T244 801V649Q244 390 363 239T689 87Q897 87 1015 236T1133 652V807Z" />
<glyph unicode="R" horiz-adv-x="1300" d="M728 606H305V0H181V1456H654Q887 1456 1018 1343T1149 1027Q1149 887 1067 780T847 632L1211 13V0H1080L728 606ZM305 711H682Q837 711 931 799T1025 1027Q1025 1181 927 1266T652 1351H305V711Z" />
<glyph unicode="S" horiz-adv-x="1213" d="M1008 358Q1008 479 923 549T612 683T282 822Q134 928 134 1100Q134 1267 271 1371T623 1476Q768 1476 882 1420T1060 1264T1123 1041H999Q999 1190 897 1280T623 1371Q456 1371 357 1297T258 1102Q258 991 347 921T632
798T929 687T1081 549T1132 360Q1132 188 995 84T632 -20Q478 -20 350 35T155 189T88 416H211Q211 262 326 173T632 84Q802 84 905 159T1008 358Z" />
<glyph unicode="T" horiz-adv-x="1223" d="M1172 1351H673V0H550V1351H52V1456H1172V1351Z" />
<glyph unicode="U" horiz-adv-x="1346" d="M1187 1456V462Q1186 315 1122 206T942 39T674 -20Q444 -20 306 105T162 453V1456H284V471Q284 287 389 186T674 84T958 186T1063 470V1456H1187Z" />
<glyph unicode="V" horiz-adv-x="1263" d="M623 180L631 149L640 180L1098 1456H1233L691 0H573L31 1456H165L623 180Z" />
<glyph unicode="W" horiz-adv-x="1836" d="M453 393L498 167L553 383L869 1456H980L1292 383L1346 165L1394 393L1657 1456H1783L1410 0H1292L962 1139L925 1283L889 1139L551 0H433L61 1456H187L453 393Z" />
<glyph unicode="X" horiz-adv-x="1253" d="M627 840L1037 1456H1184L702 738L1199 0H1051L627 636L201 0H55L553 738L70 1456H217L627 840Z" />
<glyph unicode="Y" horiz-adv-x="1226" d="M611 662L1056 1456H1198L672 548V0H549V548L24 1456H170L611 662Z" />
<glyph unicode="Z" horiz-adv-x="1225" d="M239 104H1138V0H90V93L954 1351H116V1456H1106V1368L239 104Z" />
<glyph unicode="[" horiz-adv-x="491" d="M493 1562H283V-210H493V-312H163V1664H493V1562Z" />
<glyph unicode="\" horiz-adv-x="807" d="M48 1456H165L773 -125H656L48 1456Z" />
<glyph unicode="]" horiz-adv-x="491" d="M0 1664H331V-312H0V-210H211V1562H0V1664Z" />
<glyph unicode="^" horiz-adv-x="852" d="M421 1298L193 729H77L376 1456H466L764 729H648L421 1298Z" />
<glyph unicode="_" horiz-adv-x="884" d="M882 -101H1V0H882V-101Z" />
<glyph unicode="`" horiz-adv-x="585" d="M438 1256H329L103 1536H247L438 1256Z" />
<glyph unicode="a" horiz-adv-x="1097" d="M839 0Q821 51 816 151Q753 69 656 25T449 -20Q293 -20 197 67T100 287Q100 445 231 537T598 629H815V752Q815 868 744 934T535 1001Q410 1001 328 937T246 783L126 784Q126 913 246 1007T541 1102Q722 1102 826 1012T934
759V247Q934 90 967 12V0H839ZM463 86Q583 86 677 144T815 299V537H601Q422 535 321 472T220 297Q220 206 287 146T463 86Z" />
<glyph unicode="b" d="M1027 530Q1027 277 915 129T614 -20Q388 -20 272 148L267 0H155V1536H274V925Q388 1102 612 1102Q804 1102 915 956T1027 548V530ZM907 551Q907 765 824 881T590 998Q475 998 395 942T274 776V288Q364 84 592 84Q740 84 823 201T907 551Z" />
<glyph unicode="c" horiz-adv-x="1055" d="M556 81Q681 81 765 151T857 334H972Q967 235 910 154T759 26T556 -20Q343 -20 219 128T94 526V562Q94 722 150 845T310 1035T555 1102Q733 1102 848 996T972 717H857Q849 844 766 922T555 1000Q393 1000 304 883T214
555V520Q214 313 303 197T556 81Z" />
<glyph unicode="d" horiz-adv-x="1138" d="M108 551Q108 803 220 952T526 1102Q745 1102 860 929V1536H979V0H867L862 144Q747 -20 524 -20Q337 -20 223 130T108 537V551ZM229 530Q229 323 312 204T546 84Q767 84 860 279V787Q767 998 548 998Q397 998 313 880T229 530Z" />
<glyph unicode="e" horiz-adv-x="1058" d="M575 -20Q437 -20 326 48T152 237T90 510V553Q90 709 150 834T319 1030T553 1102Q750 1102 865 968T981 600V533H209V510Q209 326 314 204T580 81Q676 81 749 116T883 228L958 171Q826 -20 575 -20ZM553 1000Q418 1000
326 901T213 635H862V648Q857 804 773 902T553 1000Z" />
<glyph unicode="f" horiz-adv-x="678" d="M242 0V984H63V1082H242V1213Q242 1379 326 1468T562 1557Q630 1557 689 1540L680 1440Q630 1452 571 1452Q472 1452 417 1391T362 1216V1082H620V984H362V0H242Z" />
<glyph unicode="g" horiz-adv-x="1136" d="M108 551Q108 805 220 953T526 1102Q747 1102 862 926L868 1082H980V22Q980 -187 863 -309T546 -431Q433 -431 331 -381T169 -246L236 -174Q363 -330 538 -330Q688 -330 772 -242T859 4V140Q744 -20 524 -20Q336 -20
222 130T108 535V551ZM229 530Q229 323 312 204T546 84Q767 84 859 282V785Q817 889 738 943T548 998Q397 998 313 880T229 530Z" />
<glyph unicode="h" horiz-adv-x="1124" d="M275 899Q334 996 426 1049T627 1102Q801 1102 886 1004T972 710V0H853V711Q852 856 792 927T598 998Q487 998 402 929T275 741V0H156V1536H275V899Z" />
<glyph unicode="i" horiz-adv-x="459" d="M290 0H170V1082H290V0ZM149 1395Q149 1429 171 1452T231 1476T291 1453T314 1395T292 1338T231 1315T171 1338T149 1395Z" />
<glyph unicode="j" horiz-adv-x="467" d="M285 1082V-129Q285 -279 213 -358T1 -437Q-53 -437 -104 -418L-102 -319Q-58 -332 -12 -332Q166 -332 166 -127V1082H285ZM226 1476Q265 1476 287 1453T309 1395T287 1338T226 1315Q188 1315 167 1338T145 1395T166 1452T226
1476Z" />
<glyph unicode="k" horiz-adv-x="1003" d="M413 545L276 413V0H156V1536H276V553L389 675L803 1082H954L495 626L994 0H851L413 545Z" />
<glyph unicode="l" horiz-adv-x="459" d="M290 0H170V1536H290V0Z" />
<glyph unicode="m" horiz-adv-x="1815" d="M265 1082L269 906Q329 1004 419 1053T619 1102Q875 1102 944 892Q1002 993 1099 1047T1313 1102Q1661 1102 1668 722V0H1548V713Q1547 858 1486 928T1285 998Q1156 996 1067 915T968 716V0H848V722Q847 861 783 929T584
998Q471 998 390 934T270 742V0H150V1082H265Z" />
<glyph unicode="n" horiz-adv-x="1125" d="M270 1082L274 897Q335 997 426 1049T627 1102Q801 1102 886 1004T972 710V0H853V711Q852 856 792 927T598 998Q487 998 402 929T275 741V0H156V1082H270Z" />
<glyph unicode="o" horiz-adv-x="1147" d="M90 557Q90 713 150 838T321 1032T572 1102Q788 1102 922 951T1056 549V524Q1056 367 996 242T825 48T574 -20Q359 -20 225 131T90 533V557ZM210 524Q210 330 310 206T574 81Q736 81 836 205T937 534V557Q937 681 891
784T762 943T572 1000Q412 1000 311 875T210 546V524Z" />
<glyph unicode="p" d="M1026 530Q1026 277 914 129T614 -20Q392 -20 274 136V-416H155V1082H266L272 929Q389 1102 611 1102Q805 1102 915 955T1026 547V530ZM906 551Q906 758 821 878T584 998Q474 998 395 945T274 791V272Q317 179 397 130T586 81Q737 81 821
201T906 551Z" />
<glyph unicode="q" horiz-adv-x="1142" d="M108 551Q108 805 220 953T528 1102Q747 1102 861 935L867 1082H979V-416H859V134Q741 -20 526 -20Q336 -20 222 130T108 535V551ZM229 530Q229 320 313 201T548 81Q763 81 859 268V798Q814 895 735 947T550 1000Q399
1000 314 881T229 530Z" />
<glyph unicode="r" horiz-adv-x="689" d="M656 980Q618 987 575 987Q463 987 386 925T275 743V0H156V1082H273L275 910Q370 1102 580 1102Q630 1102 659 1089L656 980Z" />
<glyph unicode="s" horiz-adv-x="1037" d="M804 275Q804 364 733 418T517 502T294 572T176 669T137 807Q137 935 244 1018T518 1102Q699 1102 808 1013T918 779H798Q798 874 719 937T518 1000Q400 1000 329 948T257 811Q257 730 316 686T533 604T769 525T886 424T924
281Q924 144 814 62T525 -20Q336 -20 219 71T101 303H221Q228 198 309 140T525 81Q650 81 727 136T804 275Z" />
<glyph unicode="t" horiz-adv-x="658" d="M342 1359V1082H566V984H342V263Q342 173 374 129T483 85Q513 85 580 95L585 -3Q538 -20 457 -20Q334 -20 278 51T222 262V984H23V1082H222V1359H342Z" />
<glyph unicode="u" horiz-adv-x="1125" d="M852 137Q744 -20 507 -20Q334 -20 244 80T152 378V1082H271V393Q271 84 521 84Q781 84 850 299V1082H970V0H854L852 137Z" />
<glyph unicode="v" horiz-adv-x="985" d="M493 165L822 1082H945L541 0H444L38 1082H161L493 165Z" />
<glyph unicode="w" horiz-adv-x="1544" d="M415 249L433 156L457 254L717 1082H819L1076 261L1104 147L1127 252L1349 1082H1473L1158 0H1056L778 858L765 917L752 857L479 0H377L63 1082H186L415 249Z" />
<glyph unicode="x" horiz-adv-x="996" d="M496 643L788 1082H930L563 551L946 0H805L497 458L189 0H48L430 551L63 1082H204L496 643Z" />
<glyph unicode="y" horiz-adv-x="973" d="M499 172L815 1082H944L482 -184L458 -240Q369 -437 183 -437Q140 -437 91 -423L90 -324L152 -330Q240 -330 294 -287T387 -137L440 9L32 1082H163L499 172Z" />
<glyph unicode="z" horiz-adv-x="996" d="M235 101H938V0H87V88L743 979H107V1082H894V993L235 101Z" />
<glyph unicode="{" horiz-adv-x="676" d="M637 -404Q469 -354 384 -241T299 59V280Q299 543 68 543V647Q299 647 299 908V1137Q300 1320 384 1433T637 1597L663 1518Q419 1440 419 1127V914Q419 668 235 595Q419 518 419 277V49Q423 -243 666 -324L637 -404Z" />
<glyph unicode="|" horiz-adv-x="452" d="M279 -270H178V1456H279V-270Z" />
<glyph unicode="}" horiz-adv-x="676" d="M9 -324Q252 -243 256 49V273Q256 526 449 594Q256 662 256 913V1126Q256 1442 12 1518L38 1597Q209 1546 292 1432T376 1131V908Q376 647 607 647V543Q376 543 376 280V59Q376 -128 291 -241T38 -404L9 -324Z" />
<glyph unicode="~" horiz-adv-x="1402" d="M1254 764Q1254 615 1171 519T958 423Q886 423 824 450T670 558T535 659T441 680Q352 680 303 621T253 450L145 449Q145 598 226 692T441 787Q515 787 581 756T740 643Q807 580 855 555T958 529Q1046 529 1098 592T1150
764H1254Z" />
<glyph unicode="&#xa0;" horiz-adv-x="498" />
<glyph unicode="&#xa1;" horiz-adv-x="452" d="M174 690H285L292 -359H168L174 690ZM305 1022Q305 988 283 965T223 942T163 965T140 1022T162 1079T223 1102T283 1079T305 1022Z" />
<glyph unicode="&#xa2;" horiz-adv-x="1115" d="M581 81Q704 81 788 150T882 334H997Q989 195 887 97T636 -17V-245H516V-16Q331 7 225 150T119 526V562Q119 784 224 929T516 1098V1318H636V1099Q791 1083 891 978T997 717H882Q874 844 791 922T580 1000Q418 1000
329 883T239 555V520Q239 313 328 197T581 81Z" />
<glyph unicode="&#xa3;" horiz-adv-x="1170" d="M404 645L413 368Q415 194 349 104H1094V0H97V104H195Q246 117 272 211Q292 285 290 367L281 645H93V749H277L268 1039Q268 1239 378 1357T674 1476Q856 1476 961 1371T1067 1088H944Q944 1223 869 1297T665 1371Q540
1371 466 1283T392 1039L401 749H745V645H404Z" />
<glyph unicode="&#xa4;" horiz-adv-x="1481" d="M1131 133Q1053 61 953 21T740 -20Q514 -20 349 132L194 -26L109 60L268 221Q144 389 144 608Q144 835 277 1006L109 1177L194 1264L361 1094Q526 1234 740 1234T1119 1092L1289 1265L1375 1177L1204 1002Q1334
832 1334 608Q1334 393 1212 224L1375 60L1289 -27L1131 133ZM257 608Q257 470 321 350T499 161T740 91Q869 91 981 161T1157 350T1221 608Q1221 747 1156 866T979 1054T740 1122T500 1054T323 867T257 608Z" />
<glyph unicode="&#xa5;" horiz-adv-x="1056" d="M527 731L892 1456H1030L631 705H944V616H586V412H944V324H586V0H463V324H109V412H463V616H109V705H422L24 1456H163L527 731Z" />
<glyph unicode="&#xa6;" horiz-adv-x="444" d="M159 -270V501H279V-270H159ZM279 698H159V1456H279V698Z" />
<glyph unicode="&#xa7;" horiz-adv-x="1239" d="M1119 431Q1119 331 1058 262T887 159Q978 111 1026 41T1075 -139Q1075 -303 949 -399T606 -495Q497 -495 401 -467T236 -382Q102 -268 102 -64L222 -62Q222 -218 325 -305T606 -393Q766 -393 860 -324T954 -141Q954
-64 920 -17T805 69T548 156T284 255T153 378T108 551Q108 651 166 721T331 825Q245 872 199 942T153 1120Q153 1281 282 1378T624 1476Q848 1476 972 1363T1097 1045H977Q977 1191 881 1282T624 1374Q459 1374 366 1306T273 1122Q273 1043 304 996T411 911T646
828Q842 777 936 726T1075 603T1119 431ZM454 771Q346 758 287 700T228 553Q228 470 263 422T379 336T663 242L755 214Q867 227 933 284T999 428Q999 526 932 585T692 700L454 771Z" />
<glyph unicode="&#xa8;" horiz-adv-x="881" d="M137 1396Q137 1430 159 1453T219 1477T279 1454T302 1396Q302 1363 280 1340T219 1317T159 1340T137 1396ZM575 1395Q575 1429 597 1452T657 1476T717 1453T740 1395Q740 1362 718 1339T657 1316T597 1339T575 1395Z" />
<glyph unicode="&#xa9;" horiz-adv-x="1637" d="M1121 607Q1121 455 1039 374T807 293T566 399T474 686V776Q474 950 566 1056T807 1163T1039 1083T1122 850H1023Q1023 1074 807 1074Q701 1074 637 993T573 771V680Q573 546 636 465T807 383Q913 383 967 436T1022
607H1121ZM192 729Q192 553 273 399T502 155T817 65Q984 65 1129 154T1357 396T1441 729Q1441 907 1358 1059T1130 1300T817 1389Q646 1389 499 1298T272 1055T192 729ZM107 729Q107 931 200 1104T459 1376T817 1476T1174 1377T1432 1104T1526 729Q1526 532 1436
360T1181 84T817 -21Q620 -21 455 82T198 358T107 729Z" />
<glyph unicode="&#xaa;" horiz-adv-x="906" d="M649 705Q634 748 628 799Q541 691 406 691Q289 691 223 749T157 908Q157 1018 240 1079T486 1140H625V1201Q625 1286 585 1333T464 1380Q374 1380 323 1345T271 1237L164 1243Q164 1345 247 1410T464 1476Q588 1476
661 1405T734 1199V884Q734 792 760 705H649ZM426 786Q479 786 536 816T625 890V1058H496Q266 1058 266 912Q266 786 426 786Z" />
<glyph unicode="&#xab;" horiz-adv-x="933" d="M247 792L523 404H418L123 783V802L418 1181H523L247 792ZM556 536L832 148H727L432 527V546L727 925H832L556 536Z" />
<glyph unicode="&#xac;" horiz-adv-x="1117" d="M936 386H816V670H124V776H936V386Z" />
<glyph unicode="&#xad;" horiz-adv-x="586" d="M528 592H49V693H528V592Z" />
<glyph unicode="&#xae;" horiz-adv-x="1642" d="M102 729Q102 931 195 1104T454 1376T812 1476T1169 1377T1428 1104T1522 729Q1522 530 1431 358T1175 83T812 -21T450 82T193 358T102 729ZM187 729Q187 550 270 396T499 154T812 65T1125 153T1353 396T1436 729Q1436
905 1355 1057T1129 1299T812 1389Q644 1389 499 1301T270 1060T187 729ZM650 666V321H552V1160H810Q957 1160 1036 1099T1115 912Q1115 779 974 715Q1046 689 1074 635T1102 504T1106 394T1119 337V321H1017Q1003 357 1003 503Q1003 592 966 629T838 666H650ZM650
757H831Q912 757 964 799T1017 910Q1017 995 974 1031T824 1070H650V757Z" />
<glyph unicode="&#xaf;" horiz-adv-x="874" d="M756 1343H137V1440H756V1343Z" />
<glyph unicode="&#xb0;" horiz-adv-x="774" d="M630 1226Q630 1122 559 1051T388 980Q287 980 215 1051T143 1226T216 1402T388 1476T558 1403T630 1226ZM233 1226Q233 1159 277 1115T388 1071T497 1115T540 1226Q540 1295 497 1340T388 1385Q323 1385 278 1340T233
1226Z" />
<glyph unicode="&#xb1;" horiz-adv-x="1085" d="M609 829H1000V727H609V289H498V727H84V829H498V1267H609V829ZM963 0H128V101H963V0Z" />
<glyph unicode="&#xb2;" horiz-adv-x="740" d="M667 665H96V740L416 1054Q522 1164 522 1237Q522 1300 482 1338T362 1377Q275 1377 228 1333T181 1215H76Q76 1323 155 1394T360 1465T557 1403T628 1239Q628 1138 510 1016L455 961L229 752H667V665Z" />
<glyph unicode="&#xb3;" horiz-adv-x="740" d="M267 1107H353Q434 1109 481 1145T529 1241Q529 1303 486 1340T362 1377Q286 1377 238 1340T190 1245H85Q85 1341 163 1403T361 1465Q489 1465 562 1405T635 1243Q635 1187 597 1140T489 1069Q651 1027 651 880Q651
778 572 716T363 654Q234 654 153 717T71 884H177Q177 822 229 782T366 741Q453 741 499 779T546 883Q546 1025 340 1025H267V1107Z" />
<glyph unicode="&#xb4;" horiz-adv-x="576" d="M315 1536H460L229 1256H124L315 1536Z" />
<glyph unicode="&#xb5;" horiz-adv-x="1140" d="M281 1082V446Q281 266 344 174T544 81Q676 81 753 138T859 312V1082H979V0H870L863 154Q765 -20 552 -20Q368 -20 281 105V-416H162V1082H281Z" />
<glyph unicode="&#xb6;" horiz-adv-x="973" d="M681 0V520H573Q423 520 312 578T142 742T83 988Q83 1201 216 1328T577 1456H801V0H681Z" />
<glyph unicode="&#xb7;" horiz-adv-x="503" d="M163 717Q163 752 185 776T247 800T310 776T333 717T310 659T247 635T185 658T163 717Z" />
<glyph unicode="&#xb8;" horiz-adv-x="498" d="M246 0L234 -64Q399 -85 399 -235Q399 -327 320 -381T105 -435L98 -357Q187 -357 243 -325T300 -237Q300 -179 257 -157T124 -127L153 0H246Z" />
<glyph unicode="&#xb9;" horiz-adv-x="740" d="M464 665H358V1328L126 1258V1348L450 1455H464V665Z" />
<glyph unicode="&#xba;" horiz-adv-x="922" d="M135 1132Q135 1285 223 1380T458 1476Q605 1476 693 1381T782 1127V1033Q782 880 694 785T460 690Q313 690 224 784T135 1038V1132ZM243 1033Q243 919 299 852T460 785Q559 785 616 851T674 1037V1132Q674 1247
616 1313T458 1380T301 1312T243 1127V1033Z" />
<glyph unicode="&#xbb;" horiz-adv-x="928" d="M221 944L516 560V541L221 162H115L391 550L115 944H221ZM540 944L835 560V541L540 162H434L710 550L434 944H540Z" />
<glyph unicode="&#xbc;" horiz-adv-x="1484" d="M453 664H347V1327L115 1257V1347L439 1454H453V664ZM414 129L340 177L1051 1315L1125 1267L414 129ZM1272 275H1399V187H1272V0H1167V187H768L764 253L1161 789H1272V275ZM878 275H1167V659L1136 609L878 275Z" />
<glyph unicode="&#xbd;" horiz-adv-x="1548" d="M370 129L296 177L1007 1315L1081 1267L370 129ZM438 664H332V1327L100 1257V1347L424 1454H438V664ZM1436 0H865V75L1185 389Q1291 499 1291 572Q1291 635 1251 673T1131 712Q1044 712 997 668T950 550H845Q845
658 924 729T1129 800T1326 738T1397 574Q1397 473 1279 351L1224 296L998 87H1436V0Z" />
<glyph unicode="&#xbe;" horiz-adv-x="1590" d="M558 129L484 177L1195 1315L1269 1267L558 129ZM1387 275H1514V187H1387V0H1282V187H883L879 253L1276 789H1387V275ZM993 275H1282V659L1251 609L993 275ZM314 1107H400Q481 1109 528 1145T576 1241Q576 1303
533 1340T409 1377Q333 1377 285 1340T237 1245H132Q132 1341 210 1403T408 1465Q536 1465 609 1405T682 1243Q682 1187 644 1140T536 1069Q698 1027 698 880Q698 778 619 716T410 654Q281 654 200 717T118 884H224Q224 822 276 782T413 741Q500 741 546 779T593
883Q593 1025 387 1025H314V1107Z" />
<glyph unicode="&#xbf;" horiz-adv-x="940" d="M551 687Q549 564 524 505T405 352T288 228Q207 123 207 -8Q207 -137 274 -207T469 -277Q588 -277 659 -207T732 -20H852Q850 -186 745 -284T469 -383Q291 -383 190 -283T88 -10Q88 101 141 202T337 438Q422 509
429 618L431 687H551ZM567 1022Q567 988 545 965T485 941T425 964T402 1022Q402 1055 424 1078T485 1101T545 1078T567 1022Z" />
<glyph unicode="&#xc0;" horiz-adv-x="1279" d="M970 408H309L159 0H30L581 1456H698L1249 0H1121L970 408ZM347 513H931L639 1306L347 513ZM716 1571H607L381 1851H525L716 1571Z" />
<glyph unicode="&#xc1;" horiz-adv-x="1279" d="M970 408H309L159 0H30L581 1456H698L1249 0H1121L970 408ZM347 513H931L639 1306L347 513ZM762 1851H907L676 1571H571L762 1851Z" />
<glyph unicode="&#xc2;" horiz-adv-x="1279" d="M970 408H309L159 0H30L581 1456H698L1249 0H1121L970 408ZM347 513H931L639 1306L347 513ZM921 1583V1573H810L642 1756L475 1573H366V1586L604 1841H680L921 1583Z" />
<glyph unicode="&#xc3;" horiz-adv-x="1279" d="M970 408H309L159 0H30L581 1456H698L1249 0H1121L970 408ZM347 513H931L639 1306L347 513ZM983 1809Q983 1713 927 1655T788 1596Q712 1596 640 1651T510 1706Q463 1706 432 1675T400 1588L310 1591Q310 1683 364
1743T505 1803Q553 1803 587 1786T651 1748T711 1710T783 1693Q829 1693 861 1726T894 1815L983 1809Z" />
<glyph unicode="&#xc4;" horiz-adv-x="1279" d="M970 408H309L159 0H30L581 1456H698L1249 0H1121L970 408ZM347 513H931L639 1306L347 513ZM343 1711Q343 1745 365 1768T425 1792T485 1769T508 1711Q508 1678 486 1655T425 1632T365 1655T343 1711ZM781 1710Q781
1744 803 1767T863 1791T923 1768T946 1710Q946 1677 924 1654T863 1631T803 1654T781 1710Z" />
<glyph unicode="&#xc5;" horiz-adv-x="1279" d="M970 408H309L159 0H30L581 1456H698L1249 0H1121L970 408ZM347 513H931L639 1306L347 513ZM450 1715Q450 1795 506 1850T643 1905Q722 1905 779 1850T836 1715Q836 1636 781 1582T643 1528T505 1582T450 1715ZM527
1715Q527 1665 560 1632T643 1599Q692 1599 726 1631T760 1715Q760 1768 725 1801T643 1834Q594 1834 561 1800T527 1715Z" />
<glyph unicode="&#xc6;" horiz-adv-x="1865" d="M1823 0H1006L989 389H393L163 0H17L898 1456H1762V1354H1068L1091 809H1680V707H1095L1121 101H1823V0ZM460 502H985L950 1331L460 502Z" />
<glyph unicode="&#xc7;" horiz-adv-x="1330" d="M1215 454Q1190 224 1051 102T679 -20Q517 -20 393 61T200 290T131 630V819Q131 1013 199 1163T394 1394T688 1476Q922 1476 1057 1350T1215 1000H1091Q1045 1371 688 1371Q490 1371 373 1223T255 814V636Q255 384
369 234T679 84Q872 84 970 176T1091 454H1215ZM728 -9L716 -73Q881 -94 881 -244Q881 -336 802 -390T587 -444L580 -366Q669 -366 725 -334T782 -246Q782 -188 739 -166T606 -136L635 -9H728Z" />
<glyph unicode="&#xc8;" horiz-adv-x="1165" d="M988 698H307V104H1090V0H184V1456H1085V1351H307V802H988V698ZM693 1577H584L358 1857H502L693 1577Z" />
<glyph unicode="&#xc9;" horiz-adv-x="1165" d="M988 698H307V104H1090V0H184V1456H1085V1351H307V802H988V698ZM739 1857H884L653 1577H548L739 1857Z" />
<glyph unicode="&#xca;" horiz-adv-x="1165" d="M988 698H307V104H1090V0H184V1456H1085V1351H307V802H988V698ZM898 1589V1579H787L619 1762L452 1579H343V1592L581 1847H657L898 1589Z" />
<glyph unicode="&#xcb;" horiz-adv-x="1165" d="M988 698H307V104H1090V0H184V1456H1085V1351H307V802H988V698ZM320 1717Q320 1751 342 1774T402 1798T462 1775T485 1717Q485 1684 463 1661T402 1638T342 1661T320 1717ZM758 1716Q758 1750 780 1773T840 1797T900
1774T923 1716Q923 1683 901 1660T840 1637T780 1660T758 1716Z" />
<glyph unicode="&#xcc;" horiz-adv-x="545" d="M334 0H211V1456H334V0ZM348 1577H239L13 1857H157L348 1577Z" />
<glyph unicode="&#xcd;" horiz-adv-x="545" d="M334 0H211V1456H334V0ZM393 1857H538L307 1577H202L393 1857Z" />
<glyph unicode="&#xce;" horiz-adv-x="545" d="M334 0H211V1456H334V0ZM553 1589V1579H442L274 1762L107 1579H-2V1592L236 1847H312L553 1589Z" />
<glyph unicode="&#xcf;" horiz-adv-x="545" d="M334 0H211V1456H334V0ZM-25 1717Q-25 1751 -3 1774T57 1798T117 1775T140 1717Q140 1684 118 1661T57 1638T-3 1661T-25 1717ZM413 1716Q413 1750 435 1773T495 1797T555 1774T578 1716Q578 1683 556 1660T495 1637T435
1660T413 1716Z" />
<glyph unicode="&#xd0;" horiz-adv-x="1371" d="M214 0V689H33V791H214V1456H621Q800 1456 942 1375T1163 1141T1243 795V661Q1243 466 1164 315T942 82T612 0H214ZM645 689H337V104H608Q843 104 982 256T1121 669V797Q1121 1048 984 1199T623 1351H337V791H645V689Z" />
<glyph unicode="&#xd1;" horiz-adv-x="1454" d="M1268 0H1145L308 1246V0H184V1456H308L1146 209V1456H1268V0ZM1067 1809Q1067 1713 1011 1655T872 1596Q796 1596 724 1651T594 1706Q547 1706 516 1675T484 1588L394 1591Q394 1683 448 1743T589 1803Q637 1803
671 1786T735 1748T795 1710T867 1693Q913 1693 945 1726T978 1815L1067 1809Z" />
<glyph unicode="&#xd2;" horiz-adv-x="1386" d="M1260 649Q1260 448 1191 296T992 62T694 -20Q439 -20 282 162T125 655V805Q125 1004 195 1157T395 1393T692 1476T988 1395T1187 1166T1260 823V649ZM1137 807Q1137 1070 1018 1219T692 1368Q489 1368 369 1219T248
801V649Q248 390 368 239T694 87Q903 87 1020 236T1137 653V807ZM765 1583H656L430 1863H574L765 1583Z" />
<glyph unicode="&#xd3;" horiz-adv-x="1386" d="M1260 649Q1260 448 1191 296T992 62T694 -20Q439 -20 282 162T125 655V805Q125 1004 195 1157T395 1393T692 1476T988 1395T1187 1166T1260 823V649ZM1137 807Q1137 1070 1018 1219T692 1368Q489 1368 369 1219T248
801V649Q248 390 368 239T694 87Q903 87 1020 236T1137 653V807ZM811 1863H956L725 1583H620L811 1863Z" />
<glyph unicode="&#xd4;" horiz-adv-x="1386" d="M1260 649Q1260 448 1191 296T992 62T694 -20Q439 -20 282 162T125 655V805Q125 1004 195 1157T395 1393T692 1476T988 1395T1187 1166T1260 823V649ZM1137 807Q1137 1070 1018 1219T692 1368Q489 1368 369 1219T248
801V649Q248 390 368 239T694 87Q903 87 1020 236T1137 653V807ZM970 1595V1585H859L691 1768L524 1585H415V1598L653 1853H729L970 1595Z" />
<glyph unicode="&#xd5;" horiz-adv-x="1386" d="M1260 649Q1260 448 1191 296T992 62T694 -20Q439 -20 282 162T125 655V805Q125 1004 195 1157T395 1393T692 1476T988 1395T1187 1166T1260 823V649ZM1137 807Q1137 1070 1018 1219T692 1368Q489 1368 369 1219T248
801V649Q248 390 368 239T694 87Q903 87 1020 236T1137 653V807ZM1032 1821Q1032 1725 976 1667T837 1608Q761 1608 689 1663T559 1718Q512 1718 481 1687T449 1600L359 1603Q359 1695 413 1755T554 1815Q602 1815 636 1798T700 1760T760 1722T832 1705Q878 1705
910 1738T943 1827L1032 1821Z" />
<glyph unicode="&#xd6;" horiz-adv-x="1386" d="M1260 649Q1260 448 1191 296T992 62T694 -20Q439 -20 282 162T125 655V805Q125 1004 195 1157T395 1393T692 1476T988 1395T1187 1166T1260 823V649ZM1137 807Q1137 1070 1018 1219T692 1368Q489 1368 369 1219T248
801V649Q248 390 368 239T694 87Q903 87 1020 236T1137 653V807ZM392 1723Q392 1757 414 1780T474 1804T534 1781T557 1723Q557 1690 535 1667T474 1644T414 1667T392 1723ZM830 1722Q830 1756 852 1779T912 1803T972 1780T995 1722Q995 1689 973 1666T912 1643T852
1666T830 1722Z" />
<glyph unicode="&#xd7;" horiz-adv-x="1072" d="M93 179L451 544L108 894L187 974L529 624L872 974L951 894L608 544L966 179L887 100L529 464L172 100L93 179Z" />
<glyph unicode="&#xd8;" horiz-adv-x="1386" d="M1260 649Q1260 448 1191 296T992 62T694 -20Q508 -20 375 77L274 -83H170L307 134Q125 318 125 658V805Q125 1004 195 1157T395 1393T692 1476Q916 1476 1064 1336L1171 1505H1274L1125 1268Q1259 1088 1260 807V649ZM248
649Q248 388 370 235L1002 1237Q883 1368 692 1368Q489 1368 369 1219T248 801V649ZM1137 807Q1137 1018 1057 1160L434 171Q541 87 694 87Q903 87 1020 236T1137 653V807Z" />
<glyph unicode="&#xd9;" horiz-adv-x="1346" d="M1187 1456V462Q1186 315 1122 206T942 39T674 -20Q444 -20 306 105T162 453V1456H284V471Q284 287 389 186T674 84T958 186T1063 470V1456H1187ZM756 1571H647L421 1851H565L756 1571Z" />
<glyph unicode="&#xda;" horiz-adv-x="1346" d="M1187 1456V462Q1186 315 1122 206T942 39T674 -20Q444 -20 306 105T162 453V1456H284V471Q284 287 389 186T674 84T958 186T1063 470V1456H1187ZM802 1851H947L716 1571H611L802 1851Z" />
<glyph unicode="&#xdb;" horiz-adv-x="1346" d="M1187 1456V462Q1186 315 1122 206T942 39T674 -20Q444 -20 306 105T162 453V1456H284V471Q284 287 389 186T674 84T958 186T1063 470V1456H1187ZM961 1583V1573H850L682 1756L515 1573H406V1586L644 1841H720L961 1583Z" />
<glyph unicode="&#xdc;" horiz-adv-x="1346" d="M1187 1456V462Q1186 315 1122 206T942 39T674 -20Q444 -20 306 105T162 453V1456H284V471Q284 287 389 186T674 84T958 186T1063 470V1456H1187ZM383 1711Q383 1745 405 1768T465 1792T525 1769T548 1711Q548 1678
526 1655T465 1632T405 1655T383 1711ZM821 1710Q821 1744 843 1767T903 1791T963 1768T986 1710Q986 1677 964 1654T903 1631T843 1654T821 1710Z" />
<glyph unicode="&#xdd;" horiz-adv-x="1226" d="M611 662L1056 1456H1198L672 548V0H549V548L24 1456H170L611 662ZM732 1845H877L646 1565H541L732 1845Z" />
<glyph unicode="&#xde;" horiz-adv-x="1214" d="M303 1456V1152H628Q771 1152 877 1101T1039 956T1096 738Q1096 553 974 441T641 324H303V0H183V1456H303ZM303 1051V425H627Q784 425 880 510T976 736T885 961T642 1051H303Z" />
<glyph unicode="&#xdf;" horiz-adv-x="1200" d="M271 0H151V1127Q151 1327 246 1435T512 1544Q665 1544 760 1460T856 1237Q856 1179 843 1131T794 1019T746 913T733 824Q733 768 774 716T911 593T1051 454T1096 306Q1096 160 990 70T720 -20Q636 -20 545 4T414
60L448 161Q485 132 562 106T706 80Q828 80 902 144T976 306Q976 367 932 423T797 547T659 681T613 826Q613 922 676 1034T739 1230Q739 1323 676 1382T522 1442Q275 1442 271 1136V0Z" />
<glyph unicode="&#xe0;" horiz-adv-x="1097" d="M839 0Q821 51 816 151Q753 69 656 25T449 -20Q293 -20 197 67T100 287Q100 445 231 537T598 629H815V752Q815 868 744 934T535 1001Q410 1001 328 937T246 783L126 784Q126 913 246 1007T541 1102Q722 1102 826
1012T934 759V247Q934 90 967 12V0H839ZM463 86Q583 86 677 144T815 299V537H601Q422 535 321 472T220 297Q220 206 287 146T463 86ZM653 1256H544L318 1536H462L653 1256Z" />
<glyph unicode="&#xe1;" horiz-adv-x="1097" d="M839 0Q821 51 816 151Q753 69 656 25T449 -20Q293 -20 197 67T100 287Q100 445 231 537T598 629H815V752Q815 868 744 934T535 1001Q410 1001 328 937T246 783L126 784Q126 913 246 1007T541 1102Q722 1102 826
1012T934 759V247Q934 90 967 12V0H839ZM463 86Q583 86 677 144T815 299V537H601Q422 535 321 472T220 297Q220 206 287 146T463 86ZM699 1536H844L613 1256H508L699 1536Z" />
<glyph unicode="&#xe2;" horiz-adv-x="1097" d="M839 0Q821 51 816 151Q753 69 656 25T449 -20Q293 -20 197 67T100 287Q100 445 231 537T598 629H815V752Q815 868 744 934T535 1001Q410 1001 328 937T246 783L126 784Q126 913 246 1007T541 1102Q722 1102 826
1012T934 759V247Q934 90 967 12V0H839ZM463 86Q583 86 677 144T815 299V537H601Q422 535 321 472T220 297Q220 206 287 146T463 86ZM858 1268V1258H747L579 1441L412 1258H303V1271L541 1526H617L858 1268Z" />
<glyph unicode="&#xe3;" horiz-adv-x="1097" d="M839 0Q821 51 816 151Q753 69 656 25T449 -20Q293 -20 197 67T100 287Q100 445 231 537T598 629H815V752Q815 868 744 934T535 1001Q410 1001 328 937T246 783L126 784Q126 913 246 1007T541 1102Q722 1102 826
1012T934 759V247Q934 90 967 12V0H839ZM463 86Q583 86 677 144T815 299V537H601Q422 535 321 472T220 297Q220 206 287 146T463 86ZM920 1494Q920 1398 864 1340T725 1281Q649 1281 577 1336T447 1391Q400 1391 369 1360T337 1273L247 1276Q247 1368 301 1428T442
1488Q490 1488 524 1471T588 1433T648 1395T720 1378Q766 1378 798 1411T831 1500L920 1494Z" />
<glyph unicode="&#xe4;" horiz-adv-x="1097" d="M839 0Q821 51 816 151Q753 69 656 25T449 -20Q293 -20 197 67T100 287Q100 445 231 537T598 629H815V752Q815 868 744 934T535 1001Q410 1001 328 937T246 783L126 784Q126 913 246 1007T541 1102Q722 1102 826
1012T934 759V247Q934 90 967 12V0H839ZM463 86Q583 86 677 144T815 299V537H601Q422 535 321 472T220 297Q220 206 287 146T463 86ZM280 1396Q280 1430 302 1453T362 1477T422 1454T445 1396Q445 1363 423 1340T362 1317T302 1340T280 1396ZM718 1395Q718 1429
740 1452T800 1476T860 1453T883 1395Q883 1362 861 1339T800 1316T740 1339T718 1395Z" />
<glyph unicode="&#xe5;" horiz-adv-x="1097" d="M839 0Q821 51 816 151Q753 69 656 25T449 -20Q293 -20 197 67T100 287Q100 445 231 537T598 629H815V752Q815 868 744 934T535 1001Q410 1001 328 937T246 783L126 784Q126 913 246 1007T541 1102Q722 1102 826
1012T934 759V247Q934 90 967 12V0H839ZM463 86Q583 86 677 144T815 299V537H601Q422 535 321 472T220 297Q220 206 287 146T463 86ZM387 1400Q387 1480 443 1535T580 1590Q659 1590 716 1535T773 1400Q773 1321 718 1267T580 1213T442 1267T387 1400ZM464 1400Q464
1350 497 1317T580 1284Q629 1284 663 1316T697 1400Q697 1453 662 1486T580 1519Q531 1519 498 1485T464 1400Z" />
<glyph unicode="&#xe6;" horiz-adv-x="1732" d="M1265 -20Q1126 -20 1027 34T867 186Q807 88 693 34T440 -20Q271 -20 178 64T85 293Q85 450 195 539T511 632H781V720Q781 852 718 926T528 1000Q398 1000 315 935T232 765L113 778Q113 922 229 1012T528 1102Q653
1102 741 1049T870 889Q930 989 1024 1045T1235 1102Q1431 1102 1543 982T1658 644V538H901V509Q901 308 997 195T1265 81Q1450 81 1589 199L1636 112Q1491 -20 1265 -20ZM458 80Q549 80 642 126T781 236V536H525Q388 536 302 475T207 309L206 289Q206 192 271
136T458 80ZM1235 1000Q1103 1000 1013 902T904 636H1539V667Q1539 821 1459 910T1235 1000Z" />
<glyph unicode="&#xe7;" horiz-adv-x="1055" d="M556 81Q681 81 765 151T857 334H972Q967 235 910 154T759 26T556 -20Q343 -20 219 128T94 526V562Q94 722 150 845T310 1035T555 1102Q733 1102 848 996T972 717H857Q849 844 766 922T555 1000Q393 1000 304 883T214
555V520Q214 313 303 197T556 81ZM589 -9L577 -73Q742 -94 742 -244Q742 -336 663 -390T448 -444L441 -366Q530 -366 586 -334T643 -246Q643 -188 600 -166T467 -136L496 -9H589Z" />
<glyph unicode="&#xe8;" horiz-adv-x="1058" d="M575 -20Q437 -20 326 48T152 237T90 510V553Q90 709 150 834T319 1030T553 1102Q750 1102 865 968T981 600V533H209V510Q209 326 314 204T580 81Q676 81 749 116T883 228L958 171Q826 -20 575 -20ZM553 1000Q418
1000 326 901T213 635H862V648Q857 804 773 902T553 1000ZM640 1256H531L305 1536H449L640 1256Z" />
<glyph unicode="&#xe9;" horiz-adv-x="1058" d="M575 -20Q437 -20 326 48T152 237T90 510V553Q90 709 150 834T319 1030T553 1102Q750 1102 865 968T981 600V533H209V510Q209 326 314 204T580 81Q676 81 749 116T883 228L958 171Q826 -20 575 -20ZM553 1000Q418
1000 326 901T213 635H862V648Q857 804 773 902T553 1000ZM686 1536H831L600 1256H495L686 1536Z" />
<glyph unicode="&#xea;" horiz-adv-x="1058" d="M575 -20Q437 -20 326 48T152 237T90 510V553Q90 709 150 834T319 1030T553 1102Q750 1102 865 968T981 600V533H209V510Q209 326 314 204T580 81Q676 81 749 116T883 228L958 171Q826 -20 575 -20ZM553 1000Q418
1000 326 901T213 635H862V648Q857 804 773 902T553 1000ZM845 1268V1258H734L566 1441L399 1258H290V1271L528 1526H604L845 1268Z" />
<glyph unicode="&#xeb;" horiz-adv-x="1058" d="M575 -20Q437 -20 326 48T152 237T90 510V553Q90 709 150 834T319 1030T553 1102Q750 1102 865 968T981 600V533H209V510Q209 326 314 204T580 81Q676 81 749 116T883 228L958 171Q826 -20 575 -20ZM553 1000Q418
1000 326 901T213 635H862V648Q857 804 773 902T553 1000ZM267 1396Q267 1430 289 1453T349 1477T409 1454T432 1396Q432 1363 410 1340T349 1317T289 1340T267 1396ZM705 1395Q705 1429 727 1452T787 1476T847 1453T870 1395Q870 1362 848 1339T787 1316T727 1339T705
1395Z" />
<glyph unicode="&#xec;" horiz-adv-x="456" d="M288 0H168V1082H288V0ZM305 1244H196L-30 1524H114L305 1244Z" />
<glyph unicode="&#xed;" horiz-adv-x="456" d="M288 0H168V1082H288V0ZM350 1780H495L264 1500H159L350 1780Z" />
<glyph unicode="&#xee;" horiz-adv-x="456" d="M288 0H168V1082H288V0ZM510 1256V1246H399L231 1429L64 1246H-45V1259L193 1514H269L510 1256Z" />
<glyph unicode="&#xef;" horiz-adv-x="456" d="M288 0H168V1082H288V0ZM-68 1384Q-68 1418 -46 1441T14 1465T74 1442T97 1384Q97 1351 75 1328T14 1305T-46 1328T-68 1384ZM370 1383Q370 1417 392 1440T452 1464T512 1441T535 1383Q535 1350 513 1327T452 1304T392
1327T370 1383Z" />
<glyph unicode="&#xf0;" horiz-adv-x="1191" d="M811 1303Q1049 1053 1055 645V535Q1055 376 999 249T842 51T615 -20Q485 -20 379 41T211 216T149 466Q149 695 268 830T587 965Q687 965 773 927T919 821Q877 1072 709 1240L484 1101L433 1174L639 1302Q502 1408
296 1475L335 1578Q577 1506 744 1366L938 1487L989 1414L811 1303ZM935 625L933 682Q894 765 807 813T609 861Q448 861 359 756T269 466Q269 363 314 274T438 134T619 83Q760 83 847 207T935 543V625Z" />
<glyph unicode="&#xf1;" horiz-adv-x="1125" d="M270 1082L274 897Q335 997 426 1049T627 1102Q801 1102 886 1004T972 710V0H853V711Q852 856 792 927T598 998Q487 998 402 929T275 741V0H156V1082H270ZM916 1493Q916 1397 860 1339T721 1280Q645 1280 573 1335T443
1390Q396 1390 365 1359T333 1272L243 1275Q243 1367 297 1427T438 1487Q486 1487 520 1470T584 1432T644 1394T716 1377Q762 1377 794 1410T827 1499L916 1493Z" />
<glyph unicode="&#xf2;" horiz-adv-x="1147" d="M90 557Q90 713 150 838T321 1032T572 1102Q788 1102 922 951T1056 549V524Q1056 367 996 242T825 48T574 -20Q359 -20 225 131T90 533V557ZM210 524Q210 330 310 206T574 81Q736 81 836 205T937 534V557Q937 681
891 784T762 943T572 1000Q412 1000 311 875T210 546V524ZM645 1256H536L310 1536H454L645 1256Z" />
<glyph unicode="&#xf3;" horiz-adv-x="1147" d="M90 557Q90 713 150 838T321 1032T572 1102Q788 1102 922 951T1056 549V524Q1056 367 996 242T825 48T574 -20Q359 -20 225 131T90 533V557ZM210 524Q210 330 310 206T574 81Q736 81 836 205T937 534V557Q937 681
891 784T762 943T572 1000Q412 1000 311 875T210 546V524ZM691 1536H836L605 1256H500L691 1536Z" />
<glyph unicode="&#xf4;" horiz-adv-x="1147" d="M90 557Q90 713 150 838T321 1032T572 1102Q788 1102 922 951T1056 549V524Q1056 367 996 242T825 48T574 -20Q359 -20 225 131T90 533V557ZM210 524Q210 330 310 206T574 81Q736 81 836 205T937 534V557Q937 681
891 784T762 943T572 1000Q412 1000 311 875T210 546V524ZM850 1268V1258H739L571 1441L404 1258H295V1271L533 1526H609L850 1268Z" />
<glyph unicode="&#xf5;" horiz-adv-x="1147" d="M90 557Q90 713 150 838T321 1032T572 1102Q788 1102 922 951T1056 549V524Q1056 367 996 242T825 48T574 -20Q359 -20 225 131T90 533V557ZM210 524Q210 330 310 206T574 81Q736 81 836 205T937 534V557Q937 681
891 784T762 943T572 1000Q412 1000 311 875T210 546V524ZM912 1493Q912 1397 856 1339T717 1280Q641 1280 569 1335T439 1390Q392 1390 361 1359T329 1272L239 1275Q239 1367 293 1427T434 1487Q482 1487 516 1470T580 1432T640 1394T712 1377Q758 1377 790 1410T823
1499L912 1493Z" />
<glyph unicode="&#xf6;" horiz-adv-x="1147" d="M90 557Q90 713 150 838T321 1032T572 1102Q788 1102 922 951T1056 549V524Q1056 367 996 242T825 48T574 -20Q359 -20 225 131T90 533V557ZM210 524Q210 330 310 206T574 81Q736 81 836 205T937 534V557Q937 681
891 784T762 943T572 1000Q412 1000 311 875T210 546V524ZM272 1396Q272 1430 294 1453T354 1477T414 1454T437 1396Q437 1363 415 1340T354 1317T294 1340T272 1396ZM710 1395Q710 1429 732 1452T792 1476T852 1453T875 1395Q875 1362 853 1339T792 1316T732 1339T710
1395Z" />
<glyph unicode="&#xf7;" horiz-adv-x="1164" d="M1070 644H72V760H1070V644ZM495 1088Q495 1123 517 1147T579 1171T642 1147T665 1088T642 1030T579 1006T517 1029T495 1088ZM495 291Q495 326 517 350T579 374T642 350T665 291T642 233T579 210T517 233T495 291Z" />
<glyph unicode="&#xf8;" horiz-adv-x="1140" d="M89 557Q89 713 149 838T320 1032T571 1102Q685 1102 785 1054L863 1214H957L857 1010Q951 938 1003 821T1055 557V524Q1055 368 994 242T823 48T573 -20Q465 -20 373 21L294 -140H200L299 63Q199 134 144 253T89
524V557ZM208 524Q208 414 243 319T348 163L737 957Q662 1000 571 1000Q410 1000 309 875T208 546V524ZM935 557Q935 660 902 751T806 905L419 115Q487 81 573 81Q734 81 834 205T935 534V557Z" />
<glyph unicode="&#xf9;" horiz-adv-x="1125" d="M852 137Q744 -20 507 -20Q334 -20 244 80T152 378V1082H271V393Q271 84 521 84Q781 84 850 299V1082H970V0H854L852 137ZM647 1256H538L312 1536H456L647 1256Z" />
<glyph unicode="&#xfa;" horiz-adv-x="1125" d="M852 137Q744 -20 507 -20Q334 -20 244 80T152 378V1082H271V393Q271 84 521 84Q781 84 850 299V1082H970V0H854L852 137ZM693 1536H838L607 1256H502L693 1536Z" />
<glyph unicode="&#xfb;" horiz-adv-x="1125" d="M852 137Q744 -20 507 -20Q334 -20 244 80T152 378V1082H271V393Q271 84 521 84Q781 84 850 299V1082H970V0H854L852 137ZM852 1268V1258H741L573 1441L406 1258H297V1271L535 1526H611L852 1268Z" />
<glyph unicode="&#xfc;" horiz-adv-x="1125" d="M852 137Q744 -20 507 -20Q334 -20 244 80T152 378V1082H271V393Q271 84 521 84Q781 84 850 299V1082H970V0H854L852 137ZM274 1396Q274 1430 296 1453T356 1477T416 1454T439 1396Q439 1363 417 1340T356 1317T296
1340T274 1396ZM712 1395Q712 1429 734 1452T794 1476T854 1453T877 1395Q877 1362 855 1339T794 1316T734 1339T712 1395Z" />
<glyph unicode="&#xfd;" horiz-adv-x="973" d="M499 172L815 1082H944L482 -184L458 -240Q369 -437 183 -437Q140 -437 91 -423L90 -324L152 -330Q240 -330 294 -287T387 -137L440 9L32 1082H163L499 172ZM633 1536H778L547 1256H442L633 1536Z" />
<glyph unicode="&#xfe;" horiz-adv-x="1150" d="M1031 530Q1031 277 919 129T618 -20Q397 -20 279 136V-416H159V1536H279V932Q396 1102 616 1102Q808 1102 919 956T1031 548V530ZM911 551Q911 758 826 878T589 998Q479 998 400 945T279 791V270Q321 180 400 131T591
81Q742 81 826 201T911 551Z" />
<glyph unicode="&#xff;" horiz-adv-x="973" d="M499 172L815 1082H944L482 -184L458 -240Q369 -437 183 -437Q140 -437 91 -423L90 -324L152 -330Q240 -330 294 -287T387 -137L440 9L32 1082H163L499 172ZM214 1396Q214 1430 236 1453T296 1477T356 1454T379 1396Q379
1363 357 1340T296 1317T236 1340T214 1396ZM652 1395Q652 1429 674 1452T734 1476T794 1453T817 1395Q817 1362 795 1339T734 1316T674 1339T652 1395Z" />
<glyph unicode="&#x2013;" horiz-adv-x="1334" d="M1417 686H415V788H1417V686Z" />
<glyph unicode="&#x2014;" horiz-adv-x="1580" d="M1462 686H126V788H1462V686Z" />
<glyph unicode="&#x2018;" horiz-adv-x="364" d="M238 1554L310 1503Q220 1385 217 1249V1121H98V1233Q98 1325 135 1410T238 1554Z" />
<glyph unicode="&#x2019;" horiz-adv-x="364" d="M133 1099L62 1151Q152 1272 155 1405V1536H273V1435Q273 1226 133 1099Z" />
<glyph unicode="&#x201a;" horiz-adv-x="353" d="M112 -231L41 -179Q124 -68 132 51L133 205H252V104Q252 -104 112 -231Z" />
<glyph unicode="&#x201c;" horiz-adv-x="612" d="M239 1554L311 1503Q221 1385 218 1249V1121H99V1233Q99 1325 136 1410T239 1554ZM490 1554L562 1503Q472 1385 469 1249V1121H350V1233Q350 1325 387 1410T490 1554Z" />
<glyph unicode="&#x201d;" horiz-adv-x="617" d="M139 1099L68 1151Q158 1272 161 1405V1536H279V1435Q279 1226 139 1099ZM383 1099L312 1151Q402 1272 405 1405V1536H523V1435Q523 1226 383 1099Z" />
<glyph unicode="&#x201e;" horiz-adv-x="593" d="M112 -240L41 -188Q130 -65 133 73V236H252V106Q252 -111 112 -240ZM346 -240L275 -188Q363 -66 366 73V236H486V106Q486 -111 346 -240Z" />
<glyph unicode="&#x2022;" horiz-adv-x="662" d="M146 752Q146 831 197 881T331 931Q413 931 464 883T517 757V717Q517 636 466 588T332 540Q248 540 197 589T146 719V752Z" />
<glyph unicode="&#x2039;" horiz-adv-x="609" d="M232 555L508 167H403L108 546V565L403 944H508L232 555Z" />
<glyph unicode="&#x203a;" horiz-adv-x="609" d="M203 944L498 560V541L203 162H97L373 550L97 944H203Z" />
</font>
</defs>
</svg>
